欢迎来到最新电影天堂高清电影下载站,免费为大家提供好看的高清电影下载地址!

设为首页 - 加入收藏 - 影视热播 - 网站地图 - RSS订阅

当前位置: 最新电影天堂 > 电影 > 剧情片 > 胜者即是正义720p.BRRip.中字下载介绍
胜者即是正义720p.BRRip.中字胜者即是正义720p.BRRip.中字

胜者即是正义720p.BRRip.中字胜者即是正义720p.BRRip.中字

立即下载

主演:

状态:全集更新时间:2016-04-29 18:14:47

地区: 上映年代:2016

胜者即是正义720p.BRRip.中字影片介绍

点击查看下一张

◎译名胜者即是正义
◎片名SPLegal High SP/リーガル・ハイ SP
◎年代2013
◎国家日本
◎类别剧情 
◎语言日语
◎字幕N/A
◎IMDB评分 7.5/10 from 41 users  
◎IMDB链接 http://www.imdb.com/title/tt2725232
◎文件格式X264 + AC3
◎视频尺寸1280x720
◎文件大小1CD 2.35 GB
◎片长2h 1mn
◎导演石川淳一 Junichi Ishikawa
◎主演堺雅人 Masato Sakai
                       新垣结衣 Yui Aragaki.
                       生濑胜久 Katsuhisa Namase
                       小池荣子 Eiko Koike
                       田口淳之介 Jun'nosuke Taguchi
                       矢野圣人 Masato Yano
                       里见浩太朗 Kotaro Satomi
                       荣仓奈奈 Nana Eikura
                       广末凉子 Hirosue Ryoko
                       北大路欣也 Kinya Kitaoji

 

 

◎简介


至今仍在古美门律师事务所内服役还债的黛真知子(新垣结衣饰)持续在败诉的路上艰难前行,而高傲自大的古美门研介(堺雅人饰)则在海外的雪场自由玩耍,兼带调戏偶然结识的美女别府敏子(广末凉子饰)。与此同时,日本兔之丘中学一名男生坠楼摔成重伤。男孩的母亲坚信儿子在校受到了欺负,是被其他男孩推下楼的。对此家长与校方意见不一致,男孩母亲通过真知子找到了讨厌小屁孩和学校的古美门。校方迅速予以回应,登门拜访三木律师所。至今仍沉浸在对可爱小纱织深深怀念中的三木(生濑胜久饰)派出旗下的新人律师,以60岁高龄一次性通过司法考试的敕使河原勋(北大路欣也饰)。一个古美门绝对不可轻视的对手,加上令他心惊肉跳的新人法官,他的不败纪录能否继续……

      Format : Matroska
      File size : 2.35 GiB
      Duration : 2h 1mn
      Overall bit rate : 2 784 Kbps
      Encoded date : UTC 2010-02-22 21:41:31
      Writing application : mkvmerge v5.9.0 ('On The Loose') built on Dec  9 2012 15:37:01
      Writing library : libebml v1.3.0 + libmatroska v1.4.0
   Video #1
      ID : 1
      Format : AVC
      Format/Info : Advanced Video Codec
      Format profile : High@L3.1
      Format settings, CABAC : Yes
      Format settings, ReFrames : 4 frames
      Muxing mode : Container profile=Unknown@3.1
      Codec ID : V_MPEG4/ISO/AVC
      Duration : 2h 0mn
      Bit rate : 2 409 Kbps
      Nominal bit rate : 2 500 Kbps
      Width : 1 280 pixels
      Height : 720 pixels
      Display aspect ratio : 16:9
      Frame rate : 29.970 fps
      Resolution : 8 bits
      Colorimetry : 4:2:0
      Scan type : Progressive
      Bits/(Pixel*Frame) : 0.087
      Stream size : 2.03 GiB (86%)
      Writing library : x264 core 116 r2074 2641b9e
     
   Audio #2
      ID : 2
      Format : AC-3
      Format/Info : Audio Coding 3
      Codec ID : A_AC3
      Duration : 2h 1mn
      Bit rate mode : Constant
      Bit rate : 320 Kbps
      Channel(s) : 2 channels
      Channel positions : L R
      Sampling rate : 48.0 KHz
      Stream size : 277 MiB (11%)
   Text #3
      ID : 3
      Format : SSA
      Codec ID : S_TEXT/SSA
      Codec ID/Info : Sub Station Alpha
   Text #4
      ID : 4
      Format : SSA
      Codec ID : S_TEXT/SSA
      Codec ID/Info : Sub Station Alpha
电影截图


点击查看下一张
点击查看下一张

[下载地址]:        

手机电影下载:http://www.8edy.com
ftp://www:piaohua.com@dy44.piaohua.com:7632/飘花电影piaohua.com胜者即是正义720p.BRRip.中字.mkv