欢迎来到最新电影天堂高清电影下载站,免费为大家提供好看的高清电影下载地址!

设为首页 - 加入收藏 - 影视热播 - 网站地图 - RSS订阅

当前位置: 最新电影天堂 > 电影 > 剧情片 > 邦妮和克莱德:生与死/雌雄大盗720p.中文【二部全】下载介绍
邦妮和克莱德:生与死/雌雄大盗720p.中文【二部全】邦妮和克莱德:生与死/雌雄大盗720p.中文【二部全】

邦妮和克莱德:生与死/雌雄大盗720p.中文【二部全】邦妮和克莱德:生与死/雌雄大盗720p.中文【二部全】

立即下载

主演:

状态:全集更新时间:2016-04-29 18:16:48

地区: 上映年代:2016

邦妮和克莱德:生与死/雌雄大盗720p.中文【二部全】影片介绍

雌雄大盗雌雄大盗
雌雄大盗

导演: 布鲁斯·贝尔斯福德
编剧: Joe Batteer / John Rice
主演: 埃米尔·赫斯基 / 荷丽黛·格兰杰
类型: 剧情 / 传记 / 犯罪
制片国家/地区: 美国
语言: 英语
首播: 2013-12-08
集数: 2
单集片长: 85分钟
IMDb链接: tt2707792
.
邦妮和克莱德:生与死 - 剧情
邦妮和克莱德是美国历史上最著名的“杀手男女”,上世纪30年代大萧条时期,克莱德·巴罗和邦妮·帕克组成团伙,他们开着汽车穿越美国,抢劫银行、商店和沿途的加油站,作案期间,他们杀死了至少9名警察和其他一些无辜者,邦妮和克莱德最终被击毙。1967年,好莱坞以此题材,拍摄了一部融合了公路片和强盗片类型的电影《雌雄大盗》。


      Format : Matroska
      File size : 1.71 GiB
      Duration : 1h 25mn
      Overall bit rate : 2 862 Kbps
      Encoded date : UTC 2010-02-22 21:41:31
      Writing application : mkvmerge v5.9.0 ('On The Loose') built on Dec  9 2012 15:37:01
      Writing library : libebml v1.3.0 + libmatroska v1.4.0
   Video #1
      ID : 1
      Format : AVC
      Format/Info : Advanced Video Codec
      Format profile : High@L3.1
      Format settings, CABAC : Yes
      Format settings, ReFrames : 4 frames
      Muxing mode : Container profile=Unknown@3.1
      Codec ID : V_MPEG4/ISO/AVC
      Duration : 1h 25mn
      Bit rate : 2 581 Kbps
      Nominal bit rate : 2 650 Kbps
      Width : 1 280 pixels
      Height : 720 pixels
      Display aspect ratio : 16:9
      Frame rate : 23.976 fps
      Resolution : 8 bits
      Colorimetry : 4:2:0
      Scan type : Progressive
      Bits/(Pixel*Frame) : 0.117
      Stream size : 1.54 GiB (90%)
      Writing library : x264 core 116 r2074 2641b9e
   Audio #2
      ID : 2
      Format : AC-3
      Format/Info : Audio Coding 3
      Codec ID : A_AC3
      Duration : 1h 25mn
      Bit rate mode : Constant
      Bit rate : 224 Kbps
      Channel(s) : 2 channels
      Channel positions : L R
      Sampling rate : 48.0 KHz
      Stream size : 137 MiB (8%)

 

      Format : Matroska
      File size : 1.72 GiB
      Duration : 1h 25mn
      Overall bit rate : 2 888 Kbps
      Encoded date : UTC 2010-02-22 21:41:31
      Writing application : mkvmerge v5.9.0 ('On The Loose') built on Dec  9 2012 15:37:01
      Writing library : libebml v1.3.0 + libmatroska v1.4.0
   Video #1
      ID : 1
      Format : AVC
      Format/Info : Advanced Video Codec
      Format profile : High@L3.1
      Format settings, CABAC : Yes
      Format settings, ReFrames : 4 frames
      Muxing mode : Container profile=Unknown@3.1
      Codec ID : V_MPEG4/ISO/AVC
      Duration : 1h 25mn
      Bit rate : 2 607 Kbps
      Nominal bit rate : 2 650 Kbps
      Width : 1 280 pixels
      Height : 720 pixels
      Display aspect ratio : 16:9
      Frame rate : 23.976 fps
      Resolution : 8 bits
      Colorimetry : 4:2:0
      Scan type : Progressive
      Bits/(Pixel*Frame) : 0.118
      Stream size : 1.55 GiB (90%)
      Writing library : x264 core 116 r2074 2641b9e
     
   Audio #2
      ID : 2
      Format : AC-3
      Format/Info : Audio Coding 3
      Codec ID : A_AC3
      Duration : 1h 25mn
      Bit rate mode : Constant
      Bit rate : 224 Kbps
      Channel(s) : 2 channels
      Channel positions : L R
      Sampling rate : 48.0 KHz
      Stream size : 137 MiB (8%)
电影截图
点击查看下一张
 

[下载地址]:        

 

手机电影下载:http://www.8edy.com
ftp://www:piaohua.com@dy44.piaohua.com:7667/飘花电影piaohua.com雌雄大盗720p.中文-1.mkv
ftp://www:piaohua.com@dy44.piaohua.com:7667/飘花电影piaohua.com雌雄大盗720p.中文-2.mkv